<?xml version="1.0" standalone="no"?> <!DOCTYPE svg PUBLIC "-//W3C//DTD SVG 1.0//EN" "http://www.w3.org/TR/2001/REC-SVG-20010904/DTD/svg10.dtd" > <svg xmlns="http://www.w3.org/2000/svg" width="100%" height="100%">
<defs >
<font id="MathJax_Caligraphic-Bold" horiz-adv-x="702" ><font-face
    font-family="MathJax_Caligraphic"
    units-per-em="1000"
    panose-1="0 0 8 0 0 0 0 0 0 0"
    ascent="1107"
    descent="-411"
    alphabetic="0" />
<missing-glyph horiz-adv-x="250" d="M50 0V533H200V0H50ZM100 50H150V483H100V50Z" />
<glyph unicode=" " glyph-name="space" horiz-adv-x="250" />
<glyph unicode="0" glyph-name="zero" horiz-adv-x="575" d="M412 -17T287 -17T104 39T46 219Q46 323 85 380T210 454Q234 460 259 460H279Q328 460 337 459Q443 445 491 378Q528 321 528 219Q528 95 470 39ZM366 385Q339 409 280 409Q232 409 208 385Q196 374
192 358T186 297Q186 293 186 270T185 229Q185 157 187 131Q189 97 194 83Q208 35 287 35T380 83Q385 97 387 131Q389 157 389 229Q389 246 389 269T388 297Q387 341 383 357T366 385Z" />
<glyph unicode="1" glyph-name="one" horiz-adv-x="575" d="M80 386Q80 392 80 395T80 402T81 406T83 410T85 412T89 414T95 417H119Q246 417 319 455Q331 461 338 461Q354 461 358 451Q360 447 360 254V62H420Q480 62 484 60Q494 54 494 35V29Q494 12 491 6T473
0Q451 0 395 1T295 2T196 1T117 0Q103 0 100 6T96 29V35Q96 56 107 60Q110 62 170 62H229V213Q229 363 228 363Q218 360 181 357Q178 357 170 357T150 356T130 355H93Q83 359 82 363T80 386Z" />
<glyph unicode="2" glyph-name="two" horiz-adv-x="575" d="M149 296T123 296T81 313T64 356Q64 384 78 403Q117 460 253 460Q313 460 325 459Q429 447 477 401Q516 365 516 310Q516 279 506 262T470 227Q446 211 392 191Q357 177 354 176Q350 174 325 162T277
139L254 128Q414 129 428 130H439Q447 144 454 169Q457 186 462 189T486 193Q503 193 507 191Q516 186 517 178Q517 171 502 94T484 11Q482 5 476 2Q472 0 269 0Q65 0 62 2Q55 5 53 10T51 32Q51 54 56 58Q60 62 173 131Q273 192 296 208T335 239Q368 272 368 308Q368
368 288 390Q256 399 214 399Q170 399 170 392Q171 390 173 388Q182 375 182 355Q182 329 166 313Z" />
<glyph unicode="3" glyph-name="three" horiz-adv-x="575" d="M177 377Q226 358 226 310Q226 275 207 255T153 235T100 255T80 309Q80 326 84 341Q98 394 150 427T276 461Q353 461 406 437T482 367Q494 342 494 313Q494 264 462 222Q432 181 373 155L361 151L376
147Q461 126 501 66Q525 32 525 -15Q525 -83 481 -134Q449 -170 394 -190T274 -211Q189 -211 125 -174T49 -70Q48 -64 48 -53Q48 -17 69 6T128 29Q164 29 186 7T208 -50Q208 -92 179 -113L167 -121Q160 -125 164 -127Q167 -129 176 -133Q215 -152 268 -152Q337
-152 356 -92Q364 -69 364 -14Q364 61 341 92Q328 109 303 120Q287 125 240 125Q202 125 198 127Q191 132 191 152Q192 170 196 173T233 178Q267 180 279 185Q320 201 337 257Q345 280 345 320Q345 367 329 387T270 407Q225 407 177 377Z" />
<glyph unicode="4" glyph-name="four" horiz-adv-x="575" d="M217 -194Q207 -190 205 -186T203 -163V-154Q203 -140 212 -134Q217 -132 265 -132H314V0H180Q47 0 43 2Q37 5 34 11Q32 14 32 37Q32 59 34 63T204 265T377 465Q380 468 383 468H387Q391 468 398 468T411
469Q437 469 440 467Q446 464 449 459Q451 455 451 258V62H489Q528 62 532 60Q542 55 542 31T532 2Q528 0 489 0H451V-132H489Q528 -132 531 -134Q542 -139 542 -163Q542 -181 539 -187T522 -194Q504 -194 459 -193T378 -192Q281 -192 256 -193L217 -194ZM325 62V320L105
63L215 62H325Z" />
<glyph unicode="5" glyph-name="five" horiz-adv-x="575" d="M458 461Q472 461 472 435Q472 420 470 418Q468 413 444 387Q370 313 261 299Q245 297 226 297Q189 297 171 301H168V182Q169 182 176 187Q226 217 292 217Q351 217 406 192Q456 166 486 118T517 5Q517
-96 443 -153T255 -211Q164 -211 103 -152Q57 -104 57 -44Q57 -11 76 9T131 29Q197 21 197 -41Q197 -58 195 -66Q183 -99 153 -108L148 -110L150 -113Q153 -116 157 -120T166 -127Q204 -152 252 -152Q274 -152 280 -151Q332 -138 348 -105Q363 -76 363 9Q363 105
351 129Q333 166 286 166Q201 166 162 109Q154 98 150 96T130 93Q107 93 102 104Q100 107 100 279V371Q100 456 105 458Q106 459 107 459Q112 462 131 456Q202 429 286 429Q365 429 443 457Q457 461 458 461Z" />
<glyph unicode="6" glyph-name="six" horiz-adv-x="575" d="M405 593Q385 603 381 603Q361 607 350 607Q306 607 272 586T221 533Q199 489 196 385L195 370L197 372Q220 402 245 416T313 431Q409 431 468 368Q526 310 526 208Q526 131 492 81T405 5Q359 -17 289
-17Q217 -17 161 19Q48 94 48 316Q48 458 113 546Q185 648 322 660H339Q377 660 384 659Q497 633 497 532Q497 502 479 484T431 466T383 484T365 530Q365 569 405 593ZM357 359Q336 378 299 380Q275 380 264 376T240 358Q196 314 196 212Q196 146 202 110Q206 92
216 80Q240 41 292 41Q295 41 301 41T309 42Q338 46 355 62Q368 76 372 90Q379 115 379 230Q378 304 375 324T357 359Z" />
<glyph unicode="7" glyph-name="seven" horiz-adv-x="575" d="M162 458Q162 451 213 448Q221 448 238 447T260 446Q261 446 410 444Q543 444 545 443Q558 441 558 413Q558 395 556 393Q553 386 478 301L392 202Q336 127 326 -3Q322 -43 321 -104Q321 -154 319
-162Q314 -182 296 -196T255 -211Q231 -211 213 -197T190 -160Q189 -153 189 -130Q194 17 282 156Q309 200 370 270Q404 307 400 307H293Q151 306 146 303Q138 299 129 242Q124 218 120 215Q115 210 95 210Q78 210 74 212Q65 217 64 225Q64 229 82 345T102 465Q105
473 110 474T131 476Q152 476 157 470Q162 467 162 458Z" />
<glyph unicode="8" glyph-name="eight" horiz-adv-x="575" d="M526 189Q526 92 458 38T282 -17Q241 -17 196 -7Q125 10 87 54T48 164Q48 204 65 238Q92 290 163 329Q159 332 155 336Q134 349 110 382Q80 427 80 477Q80 533 110 581Q122 599 147 620Q190 651 246
658Q260 660 264 660Q266 660 275 660T290 661Q384 661 439 619T494 506Q494 424 414 376L406 370Q406 368 414 365Q466 336 496 289T526 189ZM406 506Q406 555 373 581T283 607Q191 605 173 560Q168 547 168 536Q168 507 199 486Q215 475 275 443L346 403Q362
415 368 421Q406 456 406 506ZM291 42Q352 42 388 64T425 134V141Q425 179 384 204Q374 212 302 251Q286 260 266 271T235 288L225 294Q218 294 192 268Q148 224 148 163Q148 103 186 73T291 42Z" />
<glyph unicode="9" glyph-name="nine" horiz-adv-x="575" d="M240 -210Q166 -210 122 -179T77 -82Q77 -52 95 -34T143 -15T191 -33T209 -81Q209 -118 175 -140Q198 -152 236 -152Q294 -152 332 -116Q356 -91 366 -54T379 62V78Q378 78 373 71Q347 36 308 23Q289
17 262 17Q168 17 108 77Q76 109 62 144T48 235Q48 273 59 317Q72 356 104 389T177 441Q225 461 276 461Q279 461 285 461T295 460Q327 460 352 454Q429 434 470 373Q526 286 526 136Q526 -101 365 -183Q308 -210 240 -210ZM312 405Q307 406 283 406Q245 406 224
387Q208 373 205 361Q200 351 197 317Q196 307 196 233Q196 158 197 148Q199 110 212 95T238 75T278 69H298Q323 79 334 90Q366 122 376 190Q377 200 377 244Q377 307 373 334Q370 358 353 377T312 405Z" />
<glyph unicode="A" glyph-name="A" horiz-adv-x="921" d="M142 -49Q102 -49 71 -20T39 55Q39 81 51 112T81 161Q94 173 103 174Q118 174 123 152Q127 133 146 119T190 105Q195 105 197 106Q240 117 341 246Q487 431 606 643L611 651H640V663Q640 673 644 682Q654
703 685 723T745 750Q747 750 752 750T761 751Q770 751 774 748Q777 747 782 742Q784 739 784 711Q784 583 794 423T820 191Q837 112 849 89Q856 76 865 76Q869 76 893 88Q937 111 962 112H973Q989 104 989 94Q989 68 944 39Q915 20 846 -11Q812 -25 779 -26Q722
-26 708 9Q699 25 687 75T669 161H524L379 162L359 136Q266 16 206 -25Q168 -49 142 -49ZM448 253Q466 261 493 261H568H658V266Q647 359 643 492Q643 500 643 518T641 541V556L557 415Q494 316 448 253Z" />
<glyph unicode="B" glyph-name="B" horiz-adv-x="748" d="M571 195Q571 264 519 298T386 333Q378 333 357 330T329 327Q307 327 307 345Q307 360 325 379T372 412Q386 419 419 430Q546 472 581 498Q594 508 594 535Q594 568 571 586T508 604T442 583Q390 546 342
457T265 256Q237 148 186 60Q167 29 144 13Q105 -15 68 -17Q40 -17 40 1Q40 9 52 29Q98 106 124 210Q164 380 187 551L190 575Q187 575 165 563Q124 542 98 542Q75 542 75 560Q75 588 123 618Q135 625 203 659T281 696Q299 703 316 703Q339 703 339 685Q339 682
328 583Q330 584 332 586T337 591T344 597Q451 688 576 703Q592 705 611 705Q651 704 681 689Q740 659 739 595Q734 504 595 427L584 421L593 417Q709 376 715 268Q717 193 665 130Q645 104 617 82Q512 -2 378 -16Q370 -17 348 -17Q275 -17 225 10Q196 23 194 30Q193
33 193 36Q193 51 214 72Q258 116 311 119H322Q385 83 441 83Q571 83 571 195Z" />
<glyph unicode="C" glyph-name="C" horiz-adv-x="613" d="M553 187Q580 187 580 168Q580 157 561 134Q520 88 462 51Q366 -10 268 -19Q261 -20 243 -20Q138 -20 79 45T20 218Q20 248 23 268Q38 387 111 490Q252 681 488 702H490Q491 702 493 702T498 703T507 703T518
702Q548 702 563 695Q599 677 599 631Q599 612 593 593Q588 574 570 537T541 486Q523 463 490 447T431 430Q423 430 419 433Q409 437 409 450Q410 457 419 474Q445 521 452 546Q454 552 454 567Q454 603 415 603Q316 603 254 532Q182 445 166 323Q164 303 164 284Q164
177 229 120Q276 80 340 80Q401 80 450 133Q499 183 553 187Z" />
<glyph unicode="D" glyph-name="D" horiz-adv-x="892" d="M107 0Q92 7 92 18Q92 24 95 31Q105 52 133 71T193 98L197 100L206 120Q295 345 308 565Q309 576 309 585Q271 585 230 576T179 557T164 528Q160 515 156 509Q143 489 114 472T59 449Q47 447 43 447Q20
447 20 465Q20 468 22 478Q35 522 76 565Q119 607 173 632Q262 677 385 685Q386 685 420 685T480 686Q505 686 540 686T578 685Q885 667 885 450Q885 371 840 290Q785 196 673 123Q503 13 286 1Q276 0 187 0H107ZM741 391Q741 566 481 584Q476 584 468 584T457
585L449 586V579Q425 346 328 122Q319 102 319 100H324Q510 100 628 175Q704 226 729 314Q741 359 741 391Z" />
<glyph unicode="E" glyph-name="E" horiz-adv-x="607" d="M216 356Q185 375 168 397T150 456Q150 520 210 582Q255 629 323 661T460 701Q466 702 474 702Q475 703 499 703Q562 703 583 694Q607 685 617 668Q626 656 627 637Q627 624 625 616Q616 581 584 553T512
518Q506 516 495 516Q471 516 471 530Q471 535 476 550T482 570Q482 590 466 596Q440 603 401 603Q344 603 319 582Q295 558 295 519Q295 491 316 470Q335 450 374 439T455 427Q477 427 477 409Q477 403 473 395Q464 377 440 360T389 333Q374 328 344 326Q267 322
223 272Q190 234 182 189Q181 185 181 176Q181 131 224 107T324 83Q365 83 391 96T448 137Q468 157 487 167Q517 185 547 187Q574 187 574 170Q574 154 545 125Q493 73 421 35T271 -15Q260 -16 226 -16Q181 -16 152 -9Q37 22 37 111Q37 128 41 144Q67 251 185 335Q189
338 216 356Z" />
<glyph unicode="F" glyph-name="F" horiz-adv-x="814" d="M17 36Q17 61 58 89T135 119Q140 119 143 119T148 118T152 116T156 113T160 109T165 104Q192 77 227 72Q232 72 234 76Q263 121 304 212Q387 392 424 570L428 586H276Q262 572 238 562T190 551Q180 551
174 556T167 569Q167 580 179 598Q196 624 235 648Q293 682 371 685Q374 686 624 686Q876 685 895 681Q909 679 919 671T930 650Q930 647 928 641Q920 619 887 596T823 568Q805 565 796 570Q786 574 786 579Q786 586 690 586H647H559L558 582L555 570Q536 491 506
407L498 384H775Q789 378 790 368Q790 350 781 334Q765 308 730 288T665 268Q647 268 642 284H457L447 261Q396 150 360 94Q329 47 276 12T170 -29Q165 -30 149 -30Q127 -30 113 -28Q60 -17 26 20Q17 29 17 36Z" />
<glyph unicode="G" glyph-name="G" horiz-adv-x="682" d="M527 562Q527 576 519 585T494 597T466 601T433 602Q351 602 302 569Q230 521 203 411Q194 376 194 344Q194 268 236 218T352 168Q386 168 415 185Q477 222 505 316Q516 345 552 368T622 393Q649 393 649
376Q649 371 635 318T612 237Q580 129 540 62T442 -49Q373 -100 296 -112Q285 -113 246 -113Q175 -113 109 -102Q88 -99 81 -96Q71 -90 71 -81Q71 -66 89 -47Q108 -28 135 -14T187 2Q199 2 219 -2Q276 -11 338 -14Q371 -14 377 -9Q410 24 446 113L451 127Q408 101
354 85T253 68Q160 68 105 126T50 279Q50 306 53 324Q68 422 128 504T287 639Q389 696 503 702H514Q524 703 532 703Q618 703 647 678Q671 658 671 626Q671 609 663 588Q643 544 599 498Q578 476 549 462T495 447Q472 447 472 465Q472 479 490 498Q519 531 526
553Q527 556 527 562Z" />
<glyph unicode="H" glyph-name="H" horiz-adv-x="987" d="M42 447Q20 447 20 465Q20 474 34 496Q87 575 173 626T367 685Q369 686 392 686Q437 686 464 662Q483 642 484 616Q484 591 479 552Q472 480 448 388L441 360Q441 359 550 359H660L663 370Q732 584 758
624Q771 645 807 665T870 686Q894 686 894 668Q894 664 883 636Q840 532 804 415T752 218Q737 135 737 93Q737 53 778 53H788Q803 54 806 55T814 63Q831 86 864 103T924 120Q946 120 946 100Q943 65 885 14Q805 -44 684 -48Q651 -48 636 -40Q613 -28 603 -10Q593
4 593 29Q593 71 603 131T624 230L634 269Q632 269 624 266Q610 261 600 261T507 259H411L399 222Q367 128 340 64Q327 32 322 21Q310 4 294 -8Q248 -41 209 -41Q188 -41 185 -25Q185 -19 201 22Q234 103 261 184Q284 256 284 258Q284 259 227 259H170Q155 268
155 277Q155 296 184 320T250 356Q259 358 286 359Q312 359 312 360Q314 372 318 385Q332 450 339 526Q339 530 339 535T340 543Q340 586 296 586Q242 586 215 572T161 517Q145 490 109 469T42 447Z" />
<glyph unicode="I" glyph-name="I" horiz-adv-x="642" d="M56 499Q32 499 32 516Q32 520 34 528Q41 550 56 570Q93 619 165 649Q241 682 365 685Q366 685 376 685T405 685T445 686T496 686T553 686H732Q746 676 746 668Q746 661 738 648Q725 628 698 611T642 587L572
586H503Q486 558 476 530Q455 476 428 368Q384 191 318 111L309 101L412 100H514L523 109Q567 150 618 153Q644 153 644 135Q644 132 642 124Q629 86 581 52T476 6Q454 2 433 2T216 0Q-11 0 -15 2Q-27 6 -27 18Q-27 34 -4 55Q23 82 59 93Q77 100 142 100H198Q256
178 299 369Q337 513 382 574L391 586H348Q260 586 176 576Q167 555 144 535T91 506Q73 499 56 499Z" />
<glyph unicode="J" glyph-name="J" horiz-adv-x="779" d="M200 127Q200 122 198 111T196 96Q196 46 240 17T345 -13Q369 -13 386 -7Q436 8 468 73Q478 93 498 169T519 250Q583 479 675 576L685 586H634Q574 586 546 583T484 564Q429 537 408 474Q402 457 395 447Q378
424 345 407T286 390Q263 390 263 407Q263 412 268 430Q296 510 367 566Q452 636 557 667Q605 681 660 685Q662 686 793 686H923Q937 676 937 668Q937 661 929 648Q917 630 892 614T842 589Q828 587 817 586Q795 585 788 578Q753 547 713 454Q674 361 632 189Q615
126 597 95Q535 -12 413 -72Q326 -114 247 -114Q191 -114 158 -100Q81 -71 60 -14Q53 6 53 32Q53 59 58 73T79 102Q126 147 177 147Q200 147 200 127Z" />
<glyph unicode="K" glyph-name="K" horiz-adv-x="871" d="M98 542Q75 542 75 560Q75 588 123 618Q132 624 199 657T275 694Q295 703 315 703Q325 703 330 700Q337 696 338 692T339 670Q339 572 317 471Q289 335 222 155Q192 73 181 53Q170 30 135 8T68 -17Q40
-17 40 0Q40 7 47 21Q118 192 162 366Q189 469 194 564V578L168 565Q125 542 98 542ZM807 163Q834 163 834 142Q834 135 831 126Q812 66 740 25T576 -16Q550 -16 544 -14Q530 -9 508 6Q477 27 439 81Q396 143 359 225T311 369Q309 377 309 398Q309 417 311 423Q319
449 347 482Q419 562 562 642Q650 692 710 702Q712 702 721 702T735 703Q772 703 791 690Q819 674 819 646T791 598T733 574H722Q704 584 704 599Q706 609 699 612T672 617L660 613Q624 601 567 566T467 496Q430 465 423 450V440Q423 410 441 359Q489 218 565 122Q589
93 604 83Q621 70 640 70Q675 70 701 82Q715 88 722 108Q733 142 783 160Q792 163 807 163Z" />
<glyph unicode="L" glyph-name="L" horiz-adv-x="788" d="M63 -17Q41 -17 41 0Q41 7 45 14Q55 32 85 54Q99 65 110 85Q130 121 153 212Q167 266 182 315Q230 462 306 553Q358 616 430 656T573 702H576Q579 703 582 703Q584 703 589 703T598 702Q640 702 664 678T689
613Q689 588 683 575Q674 550 632 523T552 496Q530 496 530 512Q530 515 531 524T533 538Q533 564 520 580T480 596H473Q460 596 448 584Q434 571 415 544Q350 447 310 281Q284 181 261 136L255 124H285Q341 123 465 103Q544 91 583 90L596 89Q602 115 646 144T729
173Q751 173 751 157Q751 154 749 146Q733 89 664 43T523 -15Q514 -16 479 -16Q422 -16 338 -3Q218 16 171 18H155L142 10Q98 -17 63 -17Z" />
<glyph unicode="M" glyph-name="M" horiz-adv-x="1378" d="M38 20Q38 58 60 98T104 139Q109 139 117 132Q140 110 176 106Q189 105 199 111Q226 131 286 281Q350 440 371 604Q375 630 376 634Q384 657 418 680T487 703Q501 703 505 699T514 678Q576 438 649 272Q682
203 686 202Q687 201 739 244T830 322L1166 642Q1224 698 1226 699Q1229 701 1237 703Q1258 703 1258 667Q1258 650 1252 631Q1237 567 1223 422T1209 202Q1209 148 1216 106Q1220 77 1232 77Q1234 77 1260 89Q1301 111 1326 112Q1353 112 1353 94Q1353 90 1352
86T1349 79T1346 73T1340 67T1334 60Q1314 40 1258 12Q1213 -11 1191 -17Q1169 -24 1150 -24H1141Q1122 -24 1116 -22Q1081 -8 1074 26Q1064 75 1064 134Q1064 257 1086 426Q1087 430 1087 434L1061 410Q871 227 783 149L694 76Q653 44 647 40T631 34Q623 34 618
36Q612 39 594 63Q546 125 514 198Q467 307 423 449L418 466L412 444Q376 310 306 153Q236 -7 169 -41Q150 -49 131 -49Q103 -48 77 -34T42 -2Q38 6 38 20Z" />
<glyph unicode="N" glyph-name="N" horiz-adv-x="937" d="M47 139Q81 105 122 105Q137 105 147 117Q164 141 197 245Q256 424 274 610Q275 634 284 647Q299 668 328 685T389 703Q396 703 400 702T407 698T411 693T414 684T418 673Q476 499 567 298Q607 211 633
166Q659 120 673 103Q674 102 674 102T675 106Q732 331 803 551Q842 674 875 725Q920 793 1000 824Q1041 840 1081 840Q1105 840 1105 803Q1105 768 1087 733T1051 689Q1045 686 1032 686Q963 681 914 640Q903 629 901 624Q889 596 855 488Q791 281 738 72L726
28L725 29Q725 30 724 28Q724 27 723 25Q716 0 681 -24T611 -48Q600 -48 596 -45Q590 -42 576 -23Q522 44 480 124Q417 243 332 463L328 473L325 457Q292 295 227 124Q168 -26 97 -46Q86 -49 72 -49Q38 -49 5 -28Q-24 -8 -24 21Q-24 48 -12 78T18 127Q30 139 41
139H47Z" />
<glyph unicode="O" glyph-name="O" horiz-adv-x="906" d="M737 405Q737 491 696 547T576 603Q556 603 543 593Q527 583 510 560Q485 530 464 485Q453 465 442 454Q397 412 346 409Q321 409 321 428Q321 433 322 436Q331 466 362 510Q411 586 484 636T635 700Q653
703 677 703Q707 703 723 699Q798 683 840 622T882 468T840 292Q803 217 735 152T580 43Q462 -17 343 -17Q313 -17 295 -15Q207 -1 147 54T69 195Q63 225 63 257Q63 311 79 365Q106 460 182 544T363 681Q396 698 416 701Q422 703 432 703Q449 703 453 695Q460 687
453 673Q440 644 382 613Q319 583 276 524Q217 446 208 346Q208 342 208 335T207 324Q207 286 216 255Q235 178 294 131T441 84Q469 84 495 89Q598 109 667 196T737 400V405Z" />
<glyph unicode="P" glyph-name="P" horiz-adv-x="810" d="M170 -67Q147 -67 147 -49Q147 -44 163 -5Q284 274 307 567Q309 585 308 585Q270 585 229 576T179 557T164 528Q160 515 156 509Q143 489 114 472T59 449Q47 447 43 447Q20 447 20 465Q20 468 22 478Q35
522 76 565Q119 607 173 632Q262 677 385 685L425 686Q465 686 495 686Q614 686 672 678T784 637Q846 598 846 533Q846 509 838 482Q812 390 713 319T498 221Q430 206 378 206H366L358 181Q341 130 316 68T282 -7Q265 -29 231 -48T170 -67ZM638 554Q574 586 461
586H448V582Q448 581 447 577T446 567T444 556Q431 437 395 301L389 280L401 286Q433 304 469 306Q597 314 651 359Q687 390 700 445Q701 451 701 468Q701 483 699 490Q685 532 638 554Z" />
<glyph unicode="Q" glyph-name="Q" horiz-adv-x="939" d="M568 222Q594 222 594 204Q594 188 571 166Q541 138 501 126T393 107Q345 103 316 103Q295 103 279 105Q209 118 165 166T120 290Q120 343 145 402Q196 525 332 612Q438 680 548 697Q574 703 601 703Q604
703 611 703T623 702Q663 702 687 696Q771 676 822 612T874 453Q874 372 837 298Q792 209 699 132Q669 108 636 87T576 51T529 27T495 12L483 7Q483 5 558 -17Q660 -46 726 -46Q752 -46 757 -38Q760 -35 762 -27Q770 -1 806 23T878 50H890Q905 42 905 33Q905 27
904 24Q883 -54 777 -109Q729 -135 670 -145Q662 -146 628 -146Q593 -146 583 -145Q509 -137 385 -98Q296 -70 249 -61Q205 -51 164 -50Q131 -50 131 -33Q131 -27 135 -19Q144 0 171 19T227 47Q235 49 265 50Q520 61 641 180Q720 261 729 367Q730 374 730 387Q730
482 672 542T520 602Q459 602 405 576Q352 549 314 497T266 385Q264 369 264 355Q264 287 304 248T413 203H420Q473 203 568 222Z" />
<glyph unicode="R" glyph-name="R" horiz-adv-x="990" d="M187 -17Q159 -17 159 0Q159 6 170 31Q290 298 309 575V585H304Q303 585 295 585T282 584Q198 576 179 557Q170 548 164 528Q160 515 156 509Q143 489 114 472T59 449Q47 447 43 447Q20 447 20 465Q20
468 22 478Q35 522 76 565Q119 607 173 632Q262 677 385 685Q388 685 406 685T452 686T505 686H575Q653 686 700 681T782 658Q818 640 834 611Q842 594 842 565Q842 544 840 533Q827 475 785 426Q729 359 632 318L619 312L626 302Q638 284 669 224Q692 178 696
172Q736 97 768 86Q776 84 784 84Q828 84 867 115Q913 153 957 153Q981 153 981 136Q981 134 979 126Q973 110 946 87Q888 39 817 11T684 -17Q663 -17 654 -14Q617 -1 590 36Q569 63 535 130Q494 210 477 234Q461 256 446 265Q437 272 421 274Q400 274 400 291Q400
298 403 304Q412 324 439 343T495 371Q501 373 525 374Q650 381 681 436Q699 467 699 503Q699 550 646 568Q589 586 471 586H449V582Q448 579 446 559Q425 367 348 165Q313 73 296 45Q281 23 247 4T187 -17Z" />
<glyph unicode="S" glyph-name="S" horiz-adv-x="696" d="M203 290Q229 290 231 274Q231 260 221 248Q206 229 180 213Q173 209 172 206T170 189Q170 175 172 169Q179 145 216 121Q273 83 356 83Q414 83 459 100Q493 111 507 141Q518 165 518 185Q518 215 499
240Q467 283 360 320Q290 343 253 372Q217 401 206 440Q204 448 204 467V476Q204 491 211 513Q225 554 263 592T357 658Q445 703 539 703Q635 703 674 683Q721 664 721 612Q721 588 714 569Q704 547 669 524T601 499Q573 499 573 516Q573 520 575 529T577 543Q577
566 564 579Q559 585 539 590Q490 603 444 603Q419 603 395 597T364 583Q348 567 348 533Q348 507 363 485Q378 466 404 450Q426 436 473 420Q593 378 633 330Q662 292 662 249Q662 189 616 133T490 37Q387 -16 257 -16Q218 -16 208 -15Q118 0 64 46Q25 75 25 126Q25
152 39 181Q76 254 160 281Q183 289 203 290Z" />
<glyph unicode="T" glyph-name="T" horiz-adv-x="644" d="M61 462Q38 462 38 479Q38 485 41 494Q61 571 163 634Q222 669 289 683L304 685L837 687L846 693Q876 712 907 718Q913 720 923 720Q947 720 947 702Q945 675 904 640Q845 591 776 583Q774 583 772 583T769
582T766 582L764 581H758Q753 581 744 581T722 580T693 580T662 580H563L514 385Q463 182 461 174Q437 94 402 24Q392 2 385 -6Q367 -29 334 -47T266 -69Q242 -69 242 -50Q244 -42 253 -25Q287 47 307 115L364 340Q413 545 418 554Q423 567 436 580H207Q199 568
194 552Q193 546 190 537Q180 518 153 498T95 468Q76 462 61 462Z" />
<glyph unicode="U" glyph-name="U" horiz-adv-x="715" d="M15 552Q-10 552 -10 570Q-10 583 10 605Q43 635 98 657T202 685Q204 686 222 686Q283 686 283 631Q283 592 254 521Q245 497 213 425Q158 299 144 246Q135 212 135 181Q135 127 161 101Q181 83 205 83Q221
83 259 106Q337 158 431 272T583 499Q587 508 599 539T623 597L634 624Q649 647 685 666T748 686Q771 686 771 669Q771 646 738 574Q731 559 713 506Q667 377 630 229Q615 168 610 105Q610 89 617 78L641 90Q681 111 706 112Q733 112 733 94Q733 81 714 60Q694
40 633 10Q567 -23 532 -24Q466 -24 466 32Q466 52 469 74Q474 127 500 225Q274 -17 102 -17Q76 -17 53 -5Q-10 26 -10 118Q-10 164 10 225Q29 280 76 389Q117 481 132 528Q139 549 139 567Q139 587 123 587Q108 587 88 577Q41 552 15 552Z" />
<glyph unicode="V" glyph-name="V" horiz-adv-x="737" d="M50 589Q25 589 25 608Q25 628 55 652T119 684Q127 686 148 686Q229 681 280 618Q350 532 371 339Q379 277 380 184L381 134L399 148Q548 260 631 366Q672 417 686 454Q689 460 689 467Q686 494 660 511T600
532Q576 532 576 567Q576 596 588 626T618 674Q630 685 641 685H649Q706 685 740 645T774 545Q774 515 765 479Q716 280 461 66Q358 -20 280 -66Q262 -77 255 -77Q237 -77 237 -23Q241 20 241 109Q241 191 237 235Q217 499 115 569Q91 586 50 589Z" />
<glyph unicode="W" glyph-name="W" horiz-adv-x="1169" d="M25 607Q25 631 63 658T142 686Q191 686 232 658Q326 596 343 375Q347 321 347 275Q347 249 345 203V189Q348 192 351 196T361 207T373 221Q491 362 587 516Q629 584 629 587Q629 588 626 597T622 607Q622
630 659 656T732 686H744Q745 686 750 683T757 678Q757 677 760 670T769 651T778 630Q871 412 904 183Q908 157 910 151L925 169Q1043 304 1097 407Q1111 435 1118 456Q1121 464 1121 474Q1120 498 1103 514T1059 532Q1036 532 1036 568Q1036 592 1045 616Q1063
671 1097 686H1109Q1156 684 1181 647T1206 551Q1206 535 1204 519Q1193 442 1144 345Q1065 189 897 7Q829 -66 817 -73Q807 -77 804 -77T797 -75Q787 -69 783 -26Q769 176 710 373Q671 501 665 501Q664 501 650 476Q493 213 280 -15Q233 -66 223 -73Q215 -77 210
-77Q191 -77 191 -40Q191 -26 192 -20Q209 55 209 217Q209 504 108 571Q81 589 45 589Q37 589 31 594T25 607Z" />
<glyph unicode="X" glyph-name="X" horiz-adv-x="817" d="M265 560Q243 560 243 577Q243 601 275 630T350 673Q388 686 447 686Q455 686 466 686L478 685Q502 681 522 663Q551 637 562 576Q565 557 570 501L577 437Q577 436 613 457T694 506T756 551Q762 558 762
562Q762 582 730 586Q717 587 712 596Q709 604 712 613Q720 637 758 661T834 686Q863 686 884 670T906 627Q906 602 885 574Q868 550 834 522Q766 466 614 379L584 362V357Q585 355 594 270T603 183Q609 141 623 121T671 100Q680 100 687 104Q721 126 754 126Q778
126 778 107Q776 86 752 62Q701 13 626 2Q615 1 578 1Q542 1 535 3Q496 15 477 53Q466 73 462 96T449 201Q447 220 445 240T442 270L441 281Q435 281 357 233Q240 165 206 135Q200 128 200 124Q200 115 208 107Q212 104 224 102T244 95T252 82Q252 67 232 47Q199
14 155 3Q148 1 129 1H120Q93 1 75 18T56 60Q56 83 77 113Q96 138 128 164Q205 228 414 345Q428 352 431 354T433 359Q422 493 414 522Q405 558 387 575Q376 586 350 586H341L332 580Q294 560 265 560Z" />
<glyph unicode="Y" glyph-name="Y" horiz-adv-x="759" d="M73 555Q49 555 49 573Q49 589 71 612Q149 686 239 686Q263 686 283 681Q335 668 376 624Q405 595 430 542Q475 449 494 290Q503 207 503 173Q503 165 504 165Q506 165 524 184T556 218Q661 328 707 445Q718
476 718 485Q718 514 690 533T628 552Q618 552 613 564T607 590Q607 617 622 646T658 685Q661 686 671 686Q722 686 754 655T795 577Q797 568 797 545Q797 507 783 460Q738 305 602 146Q490 16 352 -81Q258 -147 203 -161Q191 -164 176 -164Q123 -164 87 -133T40
-56Q36 -36 36 -29Q36 5 55 36T95 67Q109 67 114 44Q125 5 154 -12Q183 -30 216 -30Q224 -30 227 -29Q253 -23 305 7L361 44L367 49V54Q367 73 366 89Q357 345 292 475Q272 516 243 546Q206 581 156 588L146 581Q108 555 73 555Z" />
<glyph unicode="Z" glyph-name="Z" horiz-adv-x="818" d="M622 574Q494 579 420 579H397Q372 579 364 575T351 550Q341 523 314 502T253 470Q236 463 218 462Q194 462 194 478Q194 484 197 492Q214 547 275 597Q371 674 484 685H509Q538 685 634 683T755 680Q791
680 812 684Q828 686 831 686Q853 686 853 669Q853 657 826 626Q742 532 641 437L619 415L622 414Q626 414 631 414T642 414Q675 413 684 407Q697 400 697 388Q697 386 695 378Q688 358 663 341T607 323Q600 323 598 324Q591 328 546 329H522L517 325Q432 248 289
136L260 113L318 112Q341 111 446 110T587 106H627Q649 141 656 170Q666 198 711 225T788 253Q811 253 811 237Q811 232 808 221Q797 181 770 142T710 77Q640 17 560 3Q547 1 484 1Q443 1 325 3T177 6Q123 6 95 2Q83 2 71 0Q46 0 46 17Q46 28 58 44Q71 58 106 84Q252
196 383 307L408 329H361L314 330Q297 337 297 350Q297 356 302 366Q310 382 329 395T368 413Q375 415 441 415H506L647 555L664 574H622Z" />
<glyph unicode="&#xa0;" glyph-name="uni00A0" horiz-adv-x="250" />
<glyph unicode="&#xeffd;" glyph-name="uniEFFD" horiz-adv-x="500" d="M0 0V100H100V0H0ZM400 0V100H500V0H400Z" />
<glyph unicode="&#xeffe;" glyph-name="uniEFFE" horiz-adv-x="300" d="M0 0V100H100V0H0ZM200 0V100H300V0H200Z" />
<glyph unicode="&#xefff;" glyph-name="uniEFFF" horiz-adv-x="100" d="M0 0V100H100V0H0Z" />
</font>
</defs>
</svg>
